* Dettagli Torrent   globale  | Commenti (1) 


- The.100.5x03.Giganti.Dormienti.ITA.ENG.1080p.NF.WEB-DLMux.x264-Morpheus.mkv -


Download via torrent:
Categoria bittorrent SerieTv
Descrizione
[center]GIUSEPPEiCV & LITTLELINX
HANNO IL PIACERE DI PRESENTARE


STAGIONE 5
WEB-DLMUX 1080p



.: Dati Serie :.

Nazione: Stati Uniti d' America
Anno: 2018
Genere: post apocalittico, distopico, drammatico, azione
Stagione: 5
Episodi: 13
Durata: 40 min
Lingua: ITA - ENG
Interpreti e personaggi
• Eliza Taylor: Clarke Griffin
• Paige Turco: Abby Griffin
• Thomas McDonell: Finn Collins
• Eli Goree: Wells Jaha
• Marie Avgeropoulos: Octavia Blake
• Bob Morley: Bellamy Blake
• Kelly Hu: Callie Cartwig
• Christopher Larkin: Monty Green
• Devon Bostick: Jasper Jordan
• Isaiah Washington: Thelonious Jaha
• Henry Ian Cusick: Marcus Kane
• Lindsey Morgan: Raven Reyes
[b]• Ricky Whittle:
Lincoln
• Richard Harmon: John Murphy
• Zach McGowan: Roan
• Tasya Teles: Echo


In seguito a una terribile guerra nucleare globale la popolazione del pianeta Terra è stata sterminata. Sono passati 97 anni e ciò che rimane del genere umano è una stazione spaziale, l'Arca, che si trovava in orbita al momento del disastro. Ma con l'aumento della popolazione, il deteriorarsi degli impianti di riciclo e l'imminente esaurimento di ossigeno, l'Arca non è più un posto sicuro. I rappresentanti del governo decidono così di inviare sulla Terra cento delinquenti, giovani ragazzi che intraprenderanno un viaggio molto pericoloso per constatare le condizioni del pianeta in modo tale che vi si possa tornare a vivere.

I the 100 riescono ad arrivare sulla Terra ma scopriranno di non essere soli, contrariamente a quanto credevano. Cercheranno in tutti i modi di restare vivi indagando sui segreti che il pianeta nasconde e cercando di instaurare una pacifica convivenza in un luogo dove non esistono leggi né autorità. Nelle ultime quattro stagioni i protagonisti hanno combattuto per sopravvivere, solo per vedere il mondo finire per la seconda volta.
La quinta stagione inizia sei anni dopo, con i nostri eroi ancora separati: la squadra di Bellamy nello spazio, Clarke a terra e centinaia di persone intrappolate nel bunker sottostante. Ma quando un'enorme nave da prigione scende sull'ultimo luogo rimasto sulla terra, i 100 devono riunirsi per reclamare la loro casa. Mentre due eserciti si stanno per scontrare, le alleanze cambiano, gli amici diverranno nemici e la marcia verso la guerra rischia di distruggere tutto ciò che rimane della razza umana.
I nostri eroi possono interrompere il ciclo o l'umanità è destinata a ripetere il passato? In questa epica battaglia per la sopravvivenza, una cosa è certa: non ci sono bravi ragazzi.


[/b]
.: Screenshot :.




.: Caratteristiche Tecniche :.

[spoiler]
he.100.5x01.Eden.ITA.ENG.1080p.NF.WEB-DLMux.x264-Morpheus.mkv
Format                                   : Matroska
Format version                           : Version 4 / Version 2
File size                                : 1.85 GiB
Duration                                 : 40mn 0s
Overall bit rate mode                    : Variable
Overall bit rate                         : 6 614 Kbps
Encoded date                             : UTC 2018-09-25 20:38:35
Writing application                      : mkvmerge v7.6.0 ('Garden of Dreams') 64bit built on Feb  8 2015 15:12:28
Writing library                          : libebml v1.3.1 + libmatroska v1.4.2
_STATISTICS_WRITING_APP                  : mkvmerge v7.6.0 ('Garden of Dreams') 64bit built on Feb  8 2015 15:12:28
_STATISTICS_WRITING_DATE_UTC             : 2018-09-25 20:38:35
_STATISTICS_TAGS                         : BPS DURATION NUMBER_OF_FRAMES NUMBER_OF_BYTES
DURATION                                 : 00:40:00.864000000
NUMBER_OF_FRAMES                         : 75027
NUMBER_OF_BYTES                          : 115241472

Video
ID                                       : 1
Format                                   : AVC
Format/Info                              : Advanced Video Codec
Format profile                           : [email protected]
Format settings, CABAC                   : Yes
Format settings, ReFrames                : 3 frames
Codec ID                                 : V_MPEG4/ISO/AVC
Duration                                 : 40mn 0s
Bit rate mode                            : Variable
Bit rate                                 : 5 800 Kbps
Maximum bit rate                         : 8 700 Kbps
Width                                    : 1 920 pixels
Height                                   : 1 080 pixels
Display aspect ratio                     : 16:9
Frame rate                               : 25.000 fps
Original frame rate                      : 23.976 fps
Color space                              : YUV
Chroma subsampling                       : 4:2:0
Bit depth                                : 8 bits
Scan type                                : Progressive
Bits/(Pixel*Frame)                       : 0.112
Stream size                              : 1.65 GiB (89%)
Writing library                          : x264 core 148 r2715 7e75228
Encoding settings                        : cabac=1 / ref=3 / deblock=1:0:0 / analyse=0x1:0x111 / me=umh / subme=10 / psy=1 / psy_rd=1.00:0.00 / mixed_ref=1 / me_range=24 / chroma_me=1 / trellis=2 / 8x8dct=0 / cqm=0 / deadzone=21,11 / fast_pskip=1 / chroma_qp_offset=-2 / threads=8 / lookahead_threads=1 / sliced_threads=0 / nr=0 / decimate=1 / interlaced=0 / bluray_compat=0 / stitchable=1 / constrained_intra=0 / bframes=2 / b_pyramid=0 / b_adapt=2 / b_bias=0 / direct=3 / weightb=1 / open_gop=0 / weightp=2 / keyint=48 / keyint_min=25 / scenecut=0 / intra_refresh=0 / rc_lookahead=48 / rc=2pass / mbtree=1 / bitrate=5800 / ratetol=1.0 / qcomp=0.50 / qpmin=6 / qpmax=51 / qpstep=4 / cplxblur=20.0 / qblur=0.5 / vbv_maxrate=8700 / vbv_bufsize=11600 / nal_hrd=vbr / filler=0 / ip_ratio=1.40 / aq=1:1.00
Default                                  : Yes
Forced                                   : No

Audio #1
ID                                       : 2
Format                                   : AC-3
Format/Info                              : Audio Coding 3
Mode extension                           : CM (complete main)
Codec ID                                 : A_AC3
Duration                                 : 40mn 0s
Bit rate mode                            : Constant
Bit rate                                 : 192 Kbps
Channel(s)                               : 2 channels
Channel positions                        : Front: L R
Sampling rate                            : 48.0 KHz
Bit depth                                : 16 bits
Compression mode                         : Lossy
Stream size                              : 55.0 MiB (3%)
Title                                    : ITA
Language                                 : Italian
Default                                  : Yes
Forced                                   : Yes

Audio #2
ID                                       : 3
Format                                   : AC-3
Format/Info                              : Audio Coding 3
Mode extension                           : CM (complete main)
Codec ID                                 : A_AC3
Duration                                 : 40mn 0s
Bit rate mode                            : Constant
Bit rate                                 : 384 Kbps
Channel(s)                               : 6 channels
Channel positions                        : Front: L C R, Side: L R, LFE
Sampling rate                            : 48.0 KHz
Bit depth                                : 16 bits
Compression mode                         : Lossy
Stream size                              : 110 MiB (6%)
Title                                    : ENG
Language                                 : English
Default                                  : No
Forced                                   : No

Text #1
ID                                       : 4
Format                                   : UTF-8
Codec ID                                 : S_TEXT/UTF8
Codec ID/Info                            : UTF-8 Plain Text
Title                                    : Forced
Language                                 : Italian
Default                                  : Yes
Forced                                   : Yes

Text #2
ID                                       : 5
Format                                   : UTF-8
Codec ID                                 : S_TEXT/UTF8
Codec ID/Info                            : UTF-8 Plain Text
Language                                 : Italian
Default                                  : No
Forced                                   : No

Text #3
ID                                       : 6
Format                                   : UTF-8
Codec ID                                 : S_TEXT/UTF8
Codec ID/Info                            : UTF-8 Plain Text
Title                                    : SDH
Language                                 : English
Default                                  : No
Forced                                   : No


[/spoiler]


.: Ringraziamenti :.



RESTATE IN SEED ALTRIMENTI

 


[/center]
Info: Per scaricare devi usare un client come uTorrent o Transmission
AnnounceURL
udp://tracker.opentrackr.org:1337/announce
Hash c70c7901e29efec509f32773ae5e8a0cbeed3865
Peers seeds: 1 , leech: 0
Size 1.83 GB
Completato 0x
Aggiunto 10.10.18 - 11:10:45
Uploader   ppb1
Votazione (Voti: 0)


Condividi questo bittorrent:


html/blog:


bbcode/forum:




Aggiungi Commento
Ultimi commenti
 jackal98jackal98   
Grazie
11/10 11.09
Tutti commenti (1)